Skip to main content

The Dead Live at The Spectrum on 2009-05-02




The Dead
The Spectrum
Philadelphia, Pennsylvania
5/2/2009

Source: Schoeps CCM4V'S(din)>Lunatec V2>Benchmark AD2K>
Sound Devices 722 (24/48)
Location: OTS/DFC/KFC/ZFC/AARP, Section 108, Row 20, Seat 12, 12' High
DSP: Sound Devices 722>Sound Forge 9.0>CD Wave>flac(16)
Recorded By: Z-Man


Disc I:
Set I:

01. Tuning
02. Jam >
03. One More Saturday Night
04. Brown-Eyed Women
05. Good Morning Little Schoolgirl
06. Althea >
07. He's Gone >
08. Uncle John's Band >
09. Mason's Children

Disc II:
Set II:

01. Tuning
02. Jam >
03. Good Lovin' >
04. Cumberland Blues
05. Cryptical Envelopement >
06. The Other One >
07. Drum Solo >
08. Space >
09. Morning Dew

Disc III: (Set II Con't)

01. St. Stephen >
02. Revolution
03. Help On The Way >
04. Slipknot >
05. Franklin's Tower
Encore:
06. Phil Donor Rap
07. Samson And Delilah
08. Thanks


Collection TheDead
Band/Artist The Dead
Venue The Spectrum
Location Philadelphia, PA

Source Schoeps CCM4V'S(din)>Lunatec V2>Benchmark AD2K> Sound Devices 722 (24/48)
Lineage Sound Devices 722>Sound Forge 9.0>CD Wave>flac(16)
Taped by Z-Man
Transferred by Z-Man

Notes

The Dead
The Spectrum
Philadelphia, Pennsylvania
5/2/2009

Source: Schoeps CCM4V'S(din)>Lunatec V2>Benchmark AD2K>
Sound Devices 722 (24/48)
Location: OTS/DFC/KFC/ZFC/AARP, Section 108, Row 20, Seat 12, 12' High
DSP: Sound Devices 722>Sound Forge 9.0>CD Wave>flac(16)
Recorded By: Z-Man

shntool:
shntool

length expanded size cdr WAVE problems fmt ratio filename
0:25.24 4466492 B --- -- ---xx flac 0.3579 thedead2009-05-02d01t01.flac
0:59.43 10508780 B --- -- ---xx flac 0.3969 thedead2009-05-02d01t02.flac
5:56.20 62845484 B --- -- ---xx flac 0.5006 thedead2009-05-02d01t03.flac
7:04.62 74939468 B --- -- ---xx flac 0.4787 thedead2009-05-02d01t04.flac
8:17.53 87795500 B --- -- ---xx flac 0.4735 thedead2009-05-02d01t05.flac
9:22.05 99148604 B --- -- ---xx flac 0.4636 thedead2009-05-02d01t06.flac
13:08.55 139132604 B --- -- ---xx flac 0.4604 thedead2009-05-02d01t07.flac
11:14.28 118959500 B --- -- ---xx flac 0.4969 thedead2009-05-02d01t08.flac
7:32.17 79772828 B --- -- ---xx flac 0.5194 thedead2009-05-02d01t09.flac
0:26.45 4692284 B --- -- ---xx flac 0.4408 thedead2009-05-02d02t01.flac
1:46.50 18816044 B --- -- ---xx flac 0.4342 thedead2009-05-02d02t02.flac
8:37.50 91316444 B --- -- ---xx flac 0.5426 thedead2009-05-02d02t03.flac
12:26.60 131735564 B --- -- ---xx flac 0.5294 thedead2009-05-02d02t04.flac
3:56.49 41745692 B --- -- ---xx flac 0.4937 thedead2009-05-02d02t05.flac
13:08.69 139165532 B --- -- ---xx flac 0.5282 thedead2009-05-02d02t06.flac
9:37.09 101804012 B --- -- ---xx flac 0.5167 thedead2009-05-02d02t07.flac
7:18.56 77394956 B --- -- ---xx flac 0.4237 thedead2009-05-02d02t08.flac
10:27.38 110692220 B --- -- ---xx flac 0.4891 thedead2009-05-02d02t09.flac
14:28.52 153237548 B --- -- ---xx flac 0.4975 thedead2009-05-02d03t01.flac
6:01.64 63830972 B --- -- ---xx flac 0.5139 thedead2009-05-02d03t02.flac
5:04.17 53665628 B --- -- ---xx flac 0.4857 thedead2009-05-02d03t03.flac
6:25.08 67932860 B --- -- ---xx flac 0.4792 thedead2009-05-02d03t04.flac
9:48.74 103897292 B --- -- ---xx flac 0.5091 thedead2009-05-02d03t05.flac
2:20.25 24754844 B --- -- ---xx flac 0.4624 thedead2009-05-02d03t06.flac
8:24.42 89004428 B --- -- ---xx flac 0.5272 thedead2009-05-02d03t07.flac
1:23.68 14801180 B --- -- ---xx flac 0.4849 thedead2009-05-02d03t08.flac
185:45.33 1966056760 B 0.4957 (26 files)

Reviews

There are no reviews yet. Be the first one to write a review.
DOWNLOAD OPTIONS
In Collection
The Dead
In Collection
Live Music Archive
Uploaded by
ekoostikal
on 5/6/2009
Views
1,982
Favorites
2
PEOPLE ALSO FOUND
The Dead
by The Dead
680
2
0
Source: Beyerdynamic MC930's(Matched Stereo Pair)(DIN)>Canare Cables>Digi-Mod-Edirol-UA5>Creative Nomad JB3(44.1 khz)
The Dead
by The Dead
1,980
2
0
Source: Schoeps CCM4V'S(din)>Lunatec V2>Benchmark AD2K> Sound Devices 722 (24/48)
The Dead
by The Dead
579
2
0
Source: schoeps mk-4> actives > nbox > edirol r-09 (24/44.1)
The Dead
by The Dead
1,415
2
2
( 2 reviews )
Source: Schoeps CCM4V'S(din)>Lunatec V2>Sound Devices 722 (24/48)
The Dead
by The Dead
1,222
3
1
( 1 reviews )
Source: Beyerdynamic MC930's(Matched Stereo Pair)(DIN)>Canare Cables>Digi-Mod-Edirol-UA5>Creative Nomad JB3(44.1 khz)
The Dead
by The Dead
3,025
5
0
Source: schoeps CCM4V'S(din)>Lunatec V2>Benchmark AD2K> Sound Devices 722 (24/48)
Cornmeal
by Cornmeal
286
1
0
Source: Schoeps CCM4V'S(din)>Lunatec V2>Sound Devices 722 (24/48)
Ekoostik Hookah
by Ekoostik Hookah
665
2
0
Source: Schoeps CCM4V'S(din)>Lunatec V2>Sound Devices 722 (24/48)
ekoostikal Favorites
110
ITEMS
0
VIEWS
0
Ralph Roddenbery Band
by Ralph Roddenbery Band
363
1
0
Source: Schoeps CCM4V'S(din)>Lunatec V2>Benchmark AD2K> Sound Devices 722